Note: This is a beta release of Red Hat Bugzilla 5.0. The data contained within is a snapshot of the live data so any changes you make will not be reflected in the production Bugzilla. Also email is disabled so feel free to test any aspect of the site that you want. File any problems you find or give feedback here.
Bug 453338 - Changing audio track kills audio
Summary: Changing audio track kills audio
Keywords:
Status: CLOSED UPSTREAM
Alias: None
Product: Fedora
Classification: Fedora
Component: totem
Version: 9
Hardware: All
OS: Linux
low
low
Target Milestone: ---
Assignee: Bastien Nocera
QA Contact: Fedora Extras Quality Assurance
URL:
Whiteboard:
Depends On:
Blocks:
TreeView+ depends on / blocked
 
Reported: 2008-06-29 21:46 UTC by Matthew Booth
Modified: 2008-09-01 10:58 UTC (History)
1 user (show)

Fixed In Version:
Doc Type: Bug Fix
Doc Text:
Clone Of:
Environment:
Last Closed: 2008-09-01 10:58:13 UTC


Attachments (Terms of Use)

Description Matthew Booth 2008-06-29 21:46:05 UTC
Description of problem:
I'm playing an ogg file with 1 video and 2 audio streams:

    Stream #0.0: Video: mpeg4, yuv420p, 512x384 [PAR 0:1 DAR 0:1], 25.00 tb(r)
    Stream #0.1: Audio: vorbis, 48000 Hz, stereo, 112 kb/s
    Stream #0.2: Audio: vorbis, 48000 Hz, stereo, 64 kb/s

On startup, totem automatically selects the first audio stream. If I manually
select the second audio stream from the languages menu, the sound dies entirely.
Switching back to the first audio track does nothing either. There is nothing
wrong with the second audio track (mplayer plays it fine).

Version-Release number of selected component (if applicable):
gstreamer.i386                           0.10.19-1.fc9          installed       
gstreamer-ffmpeg.i386                    0.10.4-1.lvn9          installed       
gstreamer-plugins-bad.i386               0.10.7-1.lvn9          installed       
gstreamer-plugins-bad-extras.i386        0.10.7-1.lvn9          installed       
gstreamer-plugins-base.i386              0.10.19-2.fc9          installed       
gstreamer-plugins-farsight.i386          0.12.7-2.fc9           installed       
gstreamer-plugins-flumpegdemux.i386      0.10.15-2.fc9          installed       
gstreamer-plugins-good.i386              0.10.8-5.fc9           installed       
gstreamer-plugins-pulse.i386             0.9.5-0.5.svn20070924. installed       
gstreamer-plugins-schroedinger.i386      1.0.0-1.fc9            installed       
gstreamer-plugins-ugly.i386              0.10.8-1.lvn9          installed       
gstreamer-python.i386                    0.10.11-2.fc9          installed       
gstreamer-tools.i386                     0.10.19-1.fc9          installed       
totem.i386                               2.23.2-4.fc9           installed       
totem-gstreamer.i386                     2.23.2-4.fc9           installed       
totem-mozplugin.i386                     2.23.2-4.fc9           installed       
totem-nautilus.i386                      2.23.2-4.fc9           installed       
totem-pl-parser.i386                     2.22.3-1.fc9           installed       
totem-xine.i386                          2.23.2-4.fc9           installed   
alsa-plugins-pulseaudio.i386             1.0.16-4.fc9           installed       
pulseaudio.i386                          0.9.10-1.fc9           installed       
pulseaudio-core-libs.i386                0.9.10-1.fc9           installed       
pulseaudio-esound-compat.i386            0.9.10-1.fc9           installed       
pulseaudio-libs.i386                     0.9.10-1.fc9           installed       
pulseaudio-libs-glib2.i386               0.9.10-1.fc9           installed       
pulseaudio-module-gconf.i386             0.9.10-1.fc9           installed       
pulseaudio-module-x11.i386               0.9.10-1.fc9           installed       
pulseaudio-utils.i386                    0.9.10-1.fc9           installed   

How reproducible:
Always

Comment 1 Bastien Nocera 2008-06-29 22:38:06 UTC
Try seeking forward after changing the audio track, it should fix it. This is a
known bug in playbin which should be fixed in playbin2.

Comment 2 Matthew Booth 2008-06-30 06:03:47 UTC
Yes, that fixes it. Suggest you keep this open as a tracker anyway.

Comment 3 Bastien Nocera 2008-09-01 10:58:13 UTC
The tracker you should subscribe to is: http://bugzilla.gnome.org/show_bug.cgi?id=523164

I'm unlikely to revisit this bug even if the problem is fixed upstream...


Note You need to log in before you can comment on or make changes to this bug.